Terminal (2018)
[ Download from this server (75.3 Kb) ]15.05.2018, 21:18

3.74 GB

Terminal (2018) Torrent In the dark heart of a sprawling, anonymous city, TERMINAL follows the twisting tales of two assassins carrying out a sinister mission, a teacher battling a fatal illness, an enigmatic janitor and a curious waitress leading a dangerous double life. Murderous consequences unravel in the dead of night as their lives all intertwine at the hands of a mysterious criminal mastermind hell-bent on revenge.

b28d7c7efb66e4674ed4ef3872c9fd53.th.png 16885b6904f8a90a85656e2e51d5446b.th.png

American-British drama thriller from director Vaughn Stein will tell a fascinating story, which will appeal to all fans of the movie, keeping in suspense from the beginning to the very end. Terminal (2018) Torrent HD From the very beginning, we learn that someone who asked to remain anonymous decides to settle some issues and problems with the help of two hired assassins.
 
Terminal (2018) Torrent Download Professional killers should be dealt with qualitatively and quickly with the target. A top-secret operation promises great opportunities, and under no circumstances do they give out the secrets of their business, so nothing indicates a failure of the mission. And it would seem that one should not deviate from the planned policy - not to accept an order from an anonymous person. However, the big jackpot, standing at stake, crosses out all imaginable and unthinkable principles at the root. The task is very dangerous and can even lead to the death of killers themselves.
 
On their criminal path killers get acquainted with a charming girl, the secret of which will be really terrific. Terminal (2018) Torrent One acquaintance, it would seem, with a simple waitress entailed a lot of funny situations. The double life of the beauty will unfold a little later. All of them will face the fateful truth, which will reveal the cards: too much to know - means to survive only one ...

Terminal.2018.1080p.WEB-DL.DD5.1.H264-FGT

Video
ID                                       : 1
Format                                   : AVC
Format/Info                              : Advanced Video Codec
Format profile                           : High@L4
Format settings                          : CABAC / 4 Ref Frames
Format settings, CABAC                   : Yes
Format settings, ReFrames                : 4 frames
Codec ID                                 : V_MPEG4/ISO/AVC
Duration                                 : 1 h 35 min
Bit rate                                 : 5 218 kb/s
Width                                    : 1 912 pixels
Height                                   : 1 072 pixels
Display aspect ratio                     : 16:9
Frame rate mode                          : Constant
Frame rate                               : 23.976 (23976/1000) FPS
Color space                              : YUV
Chroma subsampling                       : 4:2:0
Bit depth                                : 8 bits
Scan type                                : Progressive
Bits/(Pixel*Frame)                       : 0.106
Stream size                              : 3.48 GiB (93%)
Title                                    : Terminal.2018.1080p.WEB-DL.DD5.1.H264-FGT
Language                                 : English
Default                                  : Yes
Forced                                   : No
Color range                              : Limited
Color primaries                          : BT.709
Transfer characteristics                 : BT.709
Matrix coefficients                      : BT.709

Audio
ID                                       : 2
Format                                   : AC-3
Format/Info                              : Audio Coding 3
Codec ID                                 : A_AC3
Duration                                 : 1 h 35 min
Bit rate mode                            : Constant
Bit rate                                 : 384 kb/s
Channel(s)                               : 6 channels
Channel positions                        : Front: L C R, Side: L R, LFE
Sampling rate                            : 48.0 kHz
Frame rate                               : 31.250 FPS (1536 SPF)
Bit depth                                : 16 bits
Compression mode                         : Lossy
Delay relative to video                  : -42 ms
Stream size                              : 262 MiB (7%)
Title                                    : Terminal.2018.1080p.WEB-DL.DD5.1.H264-FGT
Language                                 : English
Service kind                             : Complete Main
Default                                  : Yes
Forced                                   : No

Text
ID                                       : 3
Format                                   : UTF-8
Codec ID                                 : S_TEXT/UTF8
Codec ID/Info                            : UTF-8 Plain Text
Duration                                 : 1 h 30 min
Bit rate                                 : 68 b/s
Count of elements                        : 1512
Stream size                              : 45.0 KiB (0%)
Language                                 : English
Default                                  : Yes
Forced                                   : No

Menu
00:00:00.000                             : en:1
00:09:49.798                             : en:2
00:21:31.666                             : en:3
00:34:19.141                             : en:4
00:44:03.934                             : en:5
00:58:29.174                             : en:6
01:11:17.192                             : en:7
01:21:53.745                             : en:8
01:32:33.968                             : en:9

Category: MOVIES | Added by: mikail | Tags: movies torrents 2018, Terminal Torrent, us torrents 2018, british torrents 2018
Views: 1293 | Downloads: 348
Total comments: 0
avatar