Blockers (2018)
[ Download from this server (96.8 Kb) ]22.06.2018, 16:28

9.62 GB

Mindy, Cindy and flatulent Windy are 3 suburban high schoolers who make a blood oath as they start their senior year of high school: they'll each lose their virginities by end of final semester. When various comical attempts fail, they hunker down for their climactic (as it were) last chance at defloration : Blockers (2018) Torrent the night of the senior prom. Who will succeed, if any, who will fail, and who will flunk out?

Blockers.2018.1080p.BluRay.x264.DTS-HDC

b07d29f90350269a640e7b8d527166a2.th.png 47f39ae8da538a372e2c0594c992802f.th.png

Blockers (2018) Torrent Online - a picture of the relationship between children and their ancestors. Parents of the soul do not worship in their adored children, but children grow up, with each passing day more and more opportunities open up to them. And the older generation only has to instruct the kids on the true path, but do they always manage on time? Blockers (2018) Torrent Three best friends are familiar with each other since the first class. For several years, held side by side in the school there were a variety of situations. Girls have something to remember and what to talk about next hen.

Blockers (2018) Torrent have to taste to all lovers of comedies on the topic of youth and school adventures. Blockers (2018) Torrent It turns out that none of the future graduates have sexual experience, which means that all three heroines are inexperienced virgins, which others can easily bring into the ranks of rogue people, but they simply can not admit such young ladies. And a few days before the celebration, Blockers (2018) Torrent the heroines conclude an agreement according to which they should have sex at the ball with the first guy who got caught, but they did not take into account one thing: caring parents became witnesses of the conversation of their negligent daughters and now they will do their best to prevent the girls to stumble.

Video
ID                                       : 1
Format                                   : AVC
Format/Info                              : Advanced Video Codec
Format profile                           : High@L4.1
Format settings                          : CABAC / 5 Ref Frames
Format settings, CABAC                   : Yes
Format settings, ReFrames                : 5 frames
Codec ID                                 : V_MPEG4/ISO/AVC
Duration                                 : 1 h 41 min
Bit rate                                 : 12.0 Mb/s
Width                                    : 1 920 pixels
Height                                   : 804 pixels
Display aspect ratio                     : 2.40:1
Frame rate mode                          : Constant
Frame rate                               : 23.976 (24000/1001) FPS
Color space                              : YUV
Chroma subsampling                       : 4:2:0
Bit depth                                : 8 bits
Scan type                                : Progressive
Bits/(Pixel*Frame)                       : 0.324
Stream size                              : 8.54 GiB (89%)
Title                                    : Blockers.2018.1080p.BluRay.x264.DTS-HDC
Writing library                          : x264 core 148 r2665kMod a01e339
Encoding settings                        : cabac=1 / ref=5 / deblock=1:-3:-3 / analyse=0x3:0x133 / me=umh / subme=11 / psy=1 / fade_compensate=0.00 / psy_rd=0.85:0.00 / mixed_ref=1 / me_range=48 / chroma_me=1 / trellis=2 / 8x8dct=1 / cqm=0 / deadzone=21,11 / fast_pskip=0 / chroma_qp_offset=-2 / threads=24 / lookahead_threads=4 / sliced_threads=0 / nr=0 / decimate=0 / interlaced=0 / bluray_compat=0 / constrained_intra=0 / fgo=0 / bframes=8 / b_pyramid=2 / b_adapt=2 / b_bias=0 / direct=3 / weightb=1 / open_gop=0 / weightp=2 / keyint=240 / keyint_min=24 / scenecut=40 / intra_refresh=0 / rc=2pass / mbtree=0 / bitrate=12000 / ratetol=1.0 / qcomp=0.70 / qpmin=0 / qpmax=69 / qpstep=4 / cplxblur=20.0 / qblur=0.5 / ip_ratio=1.20 / pb_ratio=1.20 / aq=3:0.80
Default                                  : Yes
Forced                                   : No

Audio
ID                                       : 2
Format                                   : DTS
Format/Info                              : Digital Theater Systems
Codec ID                                 : A_DTS
Duration                                 : 1 h 41 min
Bit rate mode                            : Constant
Bit rate                                 : 1 509 kb/s
Channel(s)                               : 6 channels
Channel positions                        : Front: L C R, Side: L R, LFE
Sampling rate                            : 48.0 kHz
Frame rate                               : 93.750 FPS (512 SPF)
Bit depth                                : 24 bits
Compression mode                         : Lossy
Stream size                              : 1.07 GiB (11%)
Title                                    : Blockers.2018.1080p.BluRay.x264.DTS-HDC
Language                                 : English
Default                                  : Yes
Forced                                   : No

Text
ID                                       : 3
Format                                   : UTF-8
Codec ID                                 : S_TEXT/UTF8
Codec ID/Info                            : UTF-8 Plain Text
Duration                                 : 1 h 34 min
Bit rate                                 : 93 b/s
Count of elements                        : 2073
Stream size                              : 64.5 KiB (0%)
Language                                 : English
Default                                  : Yes
Forced                                   : No

Menu
00:00:00.000                             : en:00:00:00.000
00:02:50.087                             : en:00:02:50.087
00:10:02.143                             : en:00:10:02.143
00:14:50.139                             : en:00:14:50.139
00:22:11.956                             : en:00:22:11.956
00:26:09.109                             : en:00:26:09.109
00:32:02.963                             : en:00:32:02.963
00:35:18.450                             : en:00:35:18.450
00:40:06.529                             : en:00:40:06.529
00:44:33.546                             : en:00:44:33.546
00:49:58.245                             : en:00:49:58.245
00:55:14.770                             : en:00:55:14.770
00:59:26.521                             : en:00:59:26.521
01:05:34.472                             : en:01:05:34.472
01:10:20.633                             : en:01:10:20.633
01:15:47.001                             : en:01:15:47.001
01:22:48.213                             : en:01:22:48.213
01:26:38.819                             : en:01:26:38.819
01:31:15.970                             : en:01:31:15.970
01:34:08.560                             : en:01:34:08.560

Category: MOVIES | Added by: mikail | Tags: BluRay, Blockers, 2018, movies torrents 2018, 1080p, DTS, HDC, x264
Views: 288 | Downloads: 95
Total comments: 0
avatar