Beast of Burden (2018)
[ Download from this server (62.7Kb) ]02.03.2018, 00:13

3.11 GB

Beast of Burden (2018) torrent Sean Haggerty only has an hour to deliver his illegal cargo. An hour to reassure a drug cartel, a hitman, and the DEA that nothing is wrong. An hour to make sure his wife survives. And he must do it all from Beast of Burden (2018) torrent the cockpit of his Cessna.

f4be518345427654e3837fe2ac3a441c.th.png 4d0968c160c88021192fa045668583b5.th.png

The pilot Sean Haggerty has always been proud of his profession. He has a wonderful wife Jen and great prospects in life. A young man carries a small contraband for the sake of work. For this, Haggerty uses a small Cessna plane, which he owns. After some time, he realized that it was necessary to start a criminal business. Beast of Burden (2018) torrent Sean does not hesitate to break off relations with criminals.

However, as described in the film "Beast of Burden (2018) torrent" the pilot's family experienced a disaster. Doctors found a terrible disease in Jen. A woman needs an urgent expensive operation, and they do not have such means. Beast of Burden (2018) torrent Medical insurance even half can not provide coverage of a huge amount.

Beast of Burden (2018) torrent This was learned by the former criminal boss Haggerty. He offers to pay all medical expenses, but for this, Sean must transfer the narcotic potion from Mexico to the United States. And he must do it in one day. In case of betrayal, he will be removed by the Bloom killer. Simultaneously, the pilot is contacted by the government agent Malory. Haggerty for one day must make an incredible and at the same time satisfy all sides.

c09e7258051b739e6625702501555541.th.png 351fe6df6d1a5e862d161891a0607f7d.th.png

Video
ID                                       : 1
Format                                   : AVC
Format/Info                              : Advanced Video Codec
Format profile                           : High@L4
Format settings                          : CABAC / 5 Ref Frames
Format settings, CABAC                   : Yes
Format settings, ReFrames                : 5 frames
Codec ID                                 : V_MPEG4/ISO/AVC
Duration                                 : 1 h 29 min
Bit rate                                 : 4 575 kb/s
Width                                    : 1 920 pixels
Height                                   : 796 pixels
Display aspect ratio                     : 2.40:1
Frame rate mode                          : Constant
Frame rate                               : 23.976 (23976/1000) FPS
Color space                              : YUV
Chroma subsampling                       : 4:2:0
Bit depth                                : 8 bits
Scan type                                : Progressive
Bits/(Pixel*Frame)                       : 0.125
Stream size                              : 2.87 GiB (92%)
Title                                    : Beast.of.Burden.2018.1080p.WEB-DL.DD5.1.H264-FGT
Language                                 : English
Default                                  : Yes
Forced                                   : No
Color range                              : Limited
Color primaries                          : BT.709
Transfer characteristics                 : BT.709
Matrix coefficients                      : BT.709

Audio
ID                                       : 2
Format                                   : AC-3
Format/Info                              : Audio Coding 3
Codec ID                                 : A_AC3
Duration                                 : 1 h 29 min
Bit rate mode                            : Constant
Bit rate                                 : 384 kb/s
Channel(s)                               : 6 channels
Channel positions                        : Front: L C R, Side: L R, LFE
Sampling rate                            : 48.0 kHz
Frame rate                               : 31.250 FPS (1536 SPF)
Bit depth                                : 16 bits
Compression mode                         : Lossy
Delay relative to video                  : -42 ms
Stream size                              : 246 MiB (8%)
Title                                    : Beast.of.Burden.2018.1080p.WEB-DL.DD5.1.H264-FGT
Language                                 : English
Service kind                             : Complete Main
Default                                  : Yes
Forced                                   : No

Menu
00:00:00.000                             : en:1
00:05:07.640                             : en:2
00:11:01.535                             : en:3
00:17:10.946                             : en:4
00:22:08.451                             : en:5
00:28:29.874                             : en:6
00:33:28.714                             : en:7
00:38:42.736                             : en:8
00:42:09.067                             : en:9
00:51:08.022                             : en:10
00:56:37.184                             : en:11
01:02:29.202                             : en:12
01:06:56.844                             : en:13
01:13:14.137                             : en:14
01:16:12.482                             : en:15
01:23:43.933                             : en:16

 

Category: MOVIES | Added by: mikail | Tags: Beast of Burden torrent, 2018 movies torrents, download torrents, for free torrents, hd torrents
Views: 1659 | Downloads: 363
Total comments: 0
avatar