Batman Ninja (2018)
[ Download from this server (72.1 Kb) ]01.05.2018, 21:44

7.16 GB

Batman Ninja (2018) Torrent takes a journey across the ages as Gorilla Grodd's time displacement machine transports many of Batman's worst enemies to feudal Japan - along with the Dark Knight and a few of his allies. The villains take over the forms of the feudal lords that rule the divided land, with the Joker taking the lead among the warring factions. As his traditional high-tech weaponry is exhausted almost immediately, Batman Ninja (2018) Torrent must rely on his intellect and his allies - including Catwoman and the extended Bat-family - to restore order to the land, and return to present-day Gotham City.

35d6ca7098fa0b04be722d92277e2a07.th.png 29a8ddac9b3c36b38ed137014cac5567.th.png

According to the anime storyBatman Ninja (2018) Torrent by some strange coincidence, this valiant Mouse with all its supporters and opponents for disassembly in Gotham turns out to be in Japan. Yes, not just in Japan, but in the past, hitting the very heyday of feudalism. And, as they say, if you got into someone else's feast, then you have to become your own, and do not climb with your charter in a strange monastery, so Batman had to mimic as much as possible Wednesday.

Batman Ninja (2018) Torrent Otherwise, how can the world be saved ... Therefore, in the shortest time, he mastered all the wisdom of the ninja. With the help of these skills, he will undoubtedly restore order and save the world from the next danger of being destroyed, and then return to his time and his city.

Video
ID                                       : 1
Format                                   : AVC
Format/Info                              : Advanced Video Codec
Format profile                           : High@L4.1
Format settings                          : CABAC / 5 Ref Frames
Format settings, CABAC                   : Yes
Format settings, ReFrames                : 5 frames
Codec ID                                 : V_MPEG4/ISO/AVC
Duration                                 : 1 h 25 min
Bit rate                                 : 10.5 Mb/s
Width                                    : 1 920 pixels
Height                                   : 1 080 pixels
Display aspect ratio                     : 16:9
Frame rate mode                          : Constant
Frame rate                               : 23.976 (24000/1001) FPS
Color space                              : YUV
Chroma subsampling                       : 4:2:0
Bit depth                                : 8 bits
Scan type                                : Progressive
Bits/(Pixel*Frame)                       : 0.211
Stream size                              : 6.26 GiB (87%)
Title                                    : Batman.Ninja.2018.1080p.BluRay.x264.DTS-MT
Writing library                          : x264 core 155 r2901 7d0ff22
Encoding settings                        : cabac=1 / ref=5 / deblock=1:-3:-3 / analyse=0x3:0x113 / me=umh / subme=10 / psy=1 / psy_rd=1.05:0.10 / mixed_ref=1 / me_range=48 / chroma_me=1 / trellis=2 / 8x8dct=1 / cqm=0 / deadzone=21,11 / fast_pskip=0 / chroma_qp_offset=-2 / threads=12 / lookahead_threads=1 / sliced_threads=0 / nr=0 / decimate=1 / interlaced=0 / bluray_compat=0 / constrained_intra=0 / bframes=6 / b_pyramid=2 / b_adapt=2 / b_bias=0 / direct=3 / weightb=1 / open_gop=0 / weightp=2 / keyint=250 / keyint_min=23 / scenecut=40 / intra_refresh=0 / rc=2pass / mbtree=0 / bitrate=10510 / ratetol=2.0 / qcomp=0.70 / qpmin=0 / qpmax=69 / qpstep=4 / cplxblur=20.0 / qblur=0.5 / ip_ratio=1.40 / pb_ratio=1.30 / aq=3:1.00
Default                                  : Yes
Forced                                   : No

Audio
ID                                       : 2
Format                                   : DTS
Format/Info                              : Digital Theater Systems
Codec ID                                 : A_DTS
Duration                                 : 1 h 25 min
Bit rate mode                            : Constant
Bit rate                                 : 1 509 kb/s
Channel(s)                               : 6 channels
Channel positions                        : Front: L C R, Side: L R, LFE
Sampling rate                            : 48.0 kHz
Frame rate                               : 93.750 FPS (512 SPF)
Bit depth                                : 24 bits
Compression mode                         : Lossy
Stream size                              : 920 MiB (13%)
Title                                    : Batman.Ninja.2018.1080p.BluRay.x264.DTS-MT
Language                                 : English
Default                                  : Yes
Forced                                   : No

Text
ID                                       : 3
Format                                   : UTF-8
Codec ID                                 : S_TEXT/UTF8
Codec ID/Info                            : UTF-8 Plain Text
Duration                                 : 1 h 24 min
Bit rate                                 : 45 b/s
Count of elements                        : 880
Stream size                              : 28.3 KiB (0%)
Language                                 : English
Default                                  : Yes
Forced                                   : No

Menu
00:00:00.000                             : en:00:00:00.000
00:08:32.345                             : en:00:08:32.345
00:22:30.683                             : en:00:22:30.683
00:31:12.537                             : en:00:31:12.537
00:42:46.689                             : en:00:42:46.689
00:51:34.425                             : en:00:51:34.425
01:01:01.449                             : en:01:01:01.449
01:12:15.831                             : en:01:12:15.831
01:20:28.657                             : en:01:20:28.657

Category: MOVIES | Added by: mikail | Tags: Batman Ninja Torrent, cartoon torrents 2018
Views: 621 | Downloads: 161
Total comments: 0
avatar